2013Zone For Latest Downloads

 
     
 
Legal Downloads » Music » James Taylor - Before This World (2015) [Japanese Edition, SHM-CD]
Menu
Home Applications
Games Movies
Music TV Shows
Torrents Graphics

Sitemap

RSS
 
Advanced Search
Last News
Site Info
Top Contributors:
  1    supper88 32766
  2    admin 32747
  3    Whisky 10080
  4    Shark_ 8911
  5    creativelivenew 8706
  6    whathesupa 2799
  7    candymypost 840
  8    hvnteam 629
  9    vuong87 3


Articles:
  This Hour: 0
  Today: 0
  This Month: 16
  All Time: 515460


Torrents:
  Today: 0
  Yesterday: 0
  All Time: 156710


Membership:
  Registered Today :0
  This Hour:0
  This Month:0
  Total:14
  Banned:1

{online}
{inform_torrent}
Friend:
Full Download Scripts
Torrent Download
Trend
Trend

Search In Site

Music : James Taylor - Before This World (2015) [Japanese Edition, SHM-CD]
 
http://i71.fastpic.ru/big/2015/0830/39/92cd950068ba705f75284ed08854ce39.jpg

James Taylor - Before This World (2015) [Japanese Edition, SHM-CD]
EAC | FLAC | Image (Cue&Log) ~ 319 Mb (incl 5%) | Mp3 (CBR320) ~ 130 Mb (incl 5%) | Scans ~ 66 Mb
Genre: Singer/songwriter, Soft Rock, Folk Rock, Adult Contemporary | Label: Concord | # UCCO-1157| Time: 00:54:03






Tracklist:

01. Today Today Today (03:09)
02. You And I Again (03:52)
03. Angels Of Fenway (03:18)
04. Stretch Of The Highway (05:32)
05. Montana (03:25)
06. Watchin' Over Me (04:07)
07. Snow Time (05:48)
08. Jolly Springtime (05:34)
09. Far Afghanistan (04:04)
10. Wild Mountain Thyme (03:01)

Bonus tracks:
11. Pretty Boy Floyd (05:10)
12. I Can't Help It (If I'm Still In Love With You) (03:52)
13. Diamond Joe (03:05)


Exact Audio Copy V1.1 from 23. June 2015

EAC extraction logfile from 26. August 2015, 8:53

James Taylor / Before This World

Used drive : ASUS SDRW-08D1S-U Adapter: 1 ID: 1

Read mode : Secure
Utilize accurate stream : Yes
Defeat audio cache : Yes
Make use of C2 pointers : No

Read offset correction

: 667
Overread into Lead-In and Lead-Out : No
Fill up missing offset samples with silence : Yes
Delete leading and trailing silent blocks : No
Null samples used in CRC calculations : Yes
Used interface
: Native Win32 interface for Win NT & 2000

Used output format : User Defined Encoder
Selected bitrate : 128 kBit/s
Quality : High
Add ID3 tag : No
Command line compressor : C:\Program Files (x86)\Exact Audio Copy\Flac\flac.exe
Additional command line options : -V -8 -T "Date=%year%" -T "Genre=%genre%" %source%

TOC of the extracted CD Track | Start | Length | Start sector | End sector
--1 | 0:00.00 | 3:09.13 | 0 | 14187 2 | 3:09.13 | 3:52.68 | 14188 | 31655 3 | 7:02.06 | 3:18.07 | 31656 | 46512 4 | 10:20.13 | 5:32.17 | 46513 | 71429 5 | 15:52.30 | 3:25.39 | 71430 | 86843 6 | 19:17.69 | 4:07.51 | 86844 | 105419 7 | 23:25.45 | 5:48.41 | 105420 | 131560 8 | 29:14.11 | 5:34.43 | 131561 | 156653 9 | 34:48.54 | 4:04.35 | 156654 | 174988
10 | 38:53.14 | 3:01.71 | 174989 | 188634
11 | 41:55.10 | 5:10.11 | 188635 | 211895
12 | 47:05.21 | 3:52.60 | 211896 | 229355
13 | 50:58.06 | 3:05.19 | 229356 | 243249

Range status and errors

Selected range Filename C:\Users\Олег\Desktop\James Taylor - Before This World\James Taylor - Before This World.wav Peak level 99.1 %
Extraction speed 3.9 X
Range quality 99.9 %
Test CRC 369CA15A
Copy CRC 369CA15A
Copy OK

No errors occurred


AccurateRip summary

Track 1 accurately ripped (confidence 7) [A52886AA] (AR v2)
Track 2 accurately ripped (confidence 7) [EA3B0315] (AR v2)
Track 3 accurately ripped (confidence 7) [2830E2DA] (AR v2)
Track 4 accurately ripped (confidence 7) [AB111206] (AR v2)
Track 5 accurately ripped (confidence 7) [6671D37F] (AR v2)
Track 6 accurately ripped (confidence 7) [D2AA82F2] (AR v2)
Track 7 accurately ripped (confidence 7) [35FA77C9] (AR v2)
Track 8 accurately ripped (confidence 7) [CBF1DCE2] (AR v2)
Track 9 accurately ripped (confidence 7) [9249AFCF] (AR v2)
Track 10 accurately ripped (confidence 7) [345E49FB] (AR v2)
Track 11 accurately ripped (confidence 7) [2729D0EE] (AR v2)
Track 12 accurately ripped (confidence 7) [FD9812BB] (AR v2)
Track 13 accurately ripped (confidence 7) [DDB34716] (AR v2)

All tracks accurately ripped

End of status report

- CUETools DB Plugin V2.1.6

[CTDB TOCID: Ase79bUIE1S56dymwpI9BoSkR9w-] found
Submit result: Ase79bUIE1S56dymwpI9BoSkR9w- has been confirmed
Track | CTDB Status
1 | (7/7) Accurately ripped
2 | (7/7) Accurately ripped
3 | (7/7) Accurately ripped
4 | (7/7) Accurately ripped
5 | (7/7) Accurately ripped
6 | (7/7) Accurately ripped
7 | (7/7) Accurately ripped
8 | (7/7) Accurately ripped
9 | (7/7) Accurately ripped
10 | (7/7) Accurately ripped
11 | (7/7) Accurately ripped
12 | (7/7) Accurately ripped
13 | (7/7) Accurately ripped

==== Log checksum 77FB682E961688FB4FE57740778AC0E412EAF1CF9190DCF69F3B6C8C3A1ED501 ====

foobar2000 1.2 / Dynamic Range Meter 1.1.1
log date: 2015-08-27 12:51:54

Analyzed: James Taylor / Before This World

DR Peak RMS Duration Track

DR8 -0.25 dB -9.63 dB 3:09 01-Today Today Today
DR8 -0.25 dB -10.77 dB 3:53 02-You And I Again
DR8 -0.33 dB -9.55 dB 3:18 03-Angels Of Fenway
DR8 -0.08 dB -9.78 dB 5:32 04-Stretch Of The Highway
DR10 -0.37 dB -11.06 dB 3:26 05-Montana
DR8 -0.29 dB -9.75 dB 4:08 06-Watchin' Over Me
DR8 -0.17 dB -10.35 dB 5:49 07-Snow Time
DR9 -0.41 dB -11.54 dB 5:35 08-Jolly Springtime
DR8 -0.39 dB -10.26 dB 4:04 09-Far Afghanistan
DR10 -0.43 dB -13.08 dB 3:02 10-Wild Mountain Thyme
DR11 -0.24 dB -13.71 dB 5:10 11-Pretty Boy Floyd
DR11 -0.43 dB -12.90 dB 3:53 12-I Can't Help It (If I'm Still In Love With You)
DR12 -0.44 dB -14.16 dB 3:05 13-Diamond Joe

Number of tracks: 13
Official DR value: DR9

Samplerate: 44100 Hz
Channels: 2
Bits per sample: 16
Bitrate: 787 kbps
Codec: FLAC

http://i69.fastpic.ru/big/2015/0830/98/5d0c0c74194e293cd35830e6e67bdc98.jpg

http://i66.fastpic.ru/big/2015/0830/fa/6192bbf7cff86b00a4b6517fd538d7fa.jpg

All thanks to original releaser - Alex Fal
Password: designol

DOWNLOAD LINKS:
Buy Premium To Support Me & Get Resumable Support & Max Speed


Links are Interchangeable - No Password - Single Extraction

James Taylor - Before This World (2015) [Japanese Edition, SHM-CD] Fast Download



 
 
 
Dear visitor, you went to the site as an unregistered user. We encourage you to register or enter the site under your name.
 
   
 
 (Votes #: 0)