2013Zone For Latest Downloads

 
     
 
Legal Downloads » Music » B.B. King - Live & Well (1969) Reissue 1994
Menu
Home Applications
Games Movies
Music TV Shows
Torrents Graphics

Sitemap

RSS
 
Advanced Search
Last News
Site Info
Top Contributors:
  1    supper88 32766
  2    admin 32747
  3    Whisky 10080
  4    Shark_ 8911
  5    creativelivenew 8706
  6    whathesupa 2799
  7    candymypost 840
  8    hvnteam 629
  9    vuong87 3


Articles:
  This Hour: 0
  Today: 0
  This Month: 16
  All Time: 515460


Torrents:
  Today: 0
  Yesterday: 0
  All Time: 156710


Membership:
  Registered Today :0
  This Hour:0
  This Month:0
  Total:14
  Banned:1

{online}
{inform_torrent}
Friend:
Full Download Scripts
Torrent Download
Trend
Trend

Search In Site

Music : B.B. King - Live & Well (1969) Reissue 1994
 
http://i70.fastpic.ru/big/2015/0518/59/af3d46ab2b9194de7d2b4d57a1335b59.jpg

B.B. King - Live & Well (1969) Reissue 1994
EAC | FLAC | Image (Cue&Log) ~ 330 Mb (incl 5%) | Mp3 (CBR320) ~ 137 Mb (incl 5%) | Scans included
Genre: Modern Electric Blues, Soul-Blues | Label: BGO | # BGOCD 233 | Time: 00:47:54
R.I.P. Mr. B.B. King (September 16, 1925 - May 14, 2015)






Tracklist:

01. Don't Answer the Door (06:14)
02. Just a Little Love (05:18)
03. My Mood (02:39)
04. Sweet Little Angel (05:03)
05. Please Accept My Love (03:14)
06. I Want You So Bad (04:15)
07. Friends (05:37)
08. Get Off My Back, Woman (03:16)
09. Let's Get Down to Business (03:36)
10. Why I Sing the Blues (08:36)


Exact Audio Copy V0.99 prebeta 5 from 4. May 2009

EAC extraction logfile from 21. April 2010, 23:44

B.B. King / Live & Well

Used drive : HL-DT-STDVD-RAM GH22NP20 Adapter: 0 ID: 0

Read mode : Secure
Utilize accurate stream : Yes
Defeat audio cache : Yes
Make use of C2 pointers : No

Read offset correction

: 102
Overread into Lead-In and Lead-Out : No
Fill up missing offset samples with silence : Yes
Delete leading and trailing silent blocks : No
Null samples used in CRC calculations : Yes
Used interface
: Native Win32 interface for Win NT & 2000

Used output format : User Defined Encoder
Selected bitrate : 1024 kBit/s
Quality : High
Add ID3 tag : No
Command line compressor : C:\Program Files\FLAC\flac.exe
Additional command line options : -8 -V -T "ARTIST=%a" -T "TITLE=%t" -T "ALBUM=%g" -T "DATE=%y" -T "TRACKNUMBER=%n" -T "GENRE=%m" -T "COMMENT=EAC FLAC -8" %s

TOC of the extracted CD Track | Start | Length | Start sector | End sector
1 | 0:00.32 | 6:14.43 | 32 | 28124 2 | 6:15.00 | 5:18.55 | 28125 | 52029 3 | 11:33.55 | 2:39.72 | 52030 | 64026 4 | 14:13.52 | 5:03.25 | 64027 | 86776 5 | 19:17.02 | 3:14.45 | 86777 | 101371 6 | 22:31.47 | 4:15.65 | 101372 | 120561 7 | 26:47.37 | 5:37.18 | 120562 | 145854 8 | 32:24.55 | 3:16.42 | 145855 | 160596 9 | 35:41.22 | 3:36.00 | 160597 | 176796
10 | 39:17.22 | 8:36.73 | 176797 | 215569

Range status and errors

Selected range Filename C:\B.B. King - Live & Well.wav Peak level 95.0 %
Range quality 100.0 %
Test CRC 5A6EDE6B
Copy CRC 5A6EDE6B
Copy OK

No errors occurred


AccurateRip summary

Track 1 cannot be verified as accurate (confidence 3) [85F70437], AccurateRip returned [1FA3C1D2]
Track 2 cannot be verified as accurate (confidence 3) [AE874E98], AccurateRip returned [4D8F9F56]
Track 3 cannot be verified as accurate (confidence 3) [1EABDDCA], AccurateRip returned [3B061716]
Track 4 cannot be verified as accurate (confidence 2) [37D06713], AccurateRip returned [A50A65C7]
Track 5 cannot be verified as accurate (confidence 3) [CB36418A], AccurateRip returned [2F4E6795]
Track 6 cannot be verified as accurate (confidence 2) [5FAFB338], AccurateRip returned [6ED1C6BD]
Track 7 cannot be verified as accurate (confidence 3) [E9F9EB8F], AccurateRip returned AEFA80B
Track 8 cannot be verified as accurate (confidence 3) [41928B49], AccurateRip returned [D9FD9C51]
Track 9 cannot be verified as accurate (confidence 3) A54025D, AccurateRip returned [D1E0C82C]
Track 10 cannot be verified as accurate (confidence 3) [DFF6E8DE], AccurateRip returned [97312E1C]

No tracks could be verified as accurate
You may have a different pressing from the one(s) in the database

End of status report

foobar2000 1.3.8 / Dynamic Range Meter 1.1.1
log date: 2015-05-16 14:27:11

------
Analyzed: B.B. King / Live & Well
------

DR Peak RMS Duration Track
------
DR13 -1.24 dB -18.85 dB 6:15 01-Don't Answer the Door
DR13 -2.49 dB -19.37 dB 5:19 02-Just a Little Love
DR12 -0.64 dB -17.29 dB 2:40 03-My Mood
DR13 -0.52 dB -18.79 dB 5:03 04-Sweet Little Angel
DR14 -0.61 dB -19.88 dB 3:15 05-Please Accept My Love
DR13 -1.43 dB -17.88 dB 4:16 06-I Want You So Bad
DR14 -0.70 dB -17.59 dB 5:37 07-Friends
DR14 -0.44 dB -16.79 dB 3:17 08-Get Off My Back, Woman
DR14 -0.61 dB -16.61 dB 3:36 09-Let's Get Down to Business
DR14 -0.92 dB -16.48 dB 8:37 10-Why I Sing the Blues
------

Number of tracks: 10
Official DR value: DR13

Samplerate: 44100 Hz
Channels: 2
Bits per sample: 16
Bitrate: 859 kbps
Codec: FLAC

http://i71.fastpic.ru/big/2015/0518/c7/09169cdf10e844a69097ce6a7443d6c7.jpg

http://i72.fastpic.ru/big/2015/0518/df/2519ab8ec80b4f043a7e3edec8ba5bdf.jpg

All thanks to original releaser - рмх222




DOWNLOAD LINKS:
Buy Premium To Support Me & Get Resumable Support & Max Speed


Links are Interchangeable - No Password - Single Extraction

B.B. King - Live & Well (1969) Reissue 1994 Fast Download



 
 
 
Dear visitor, you went to the site as an unregistered user. We encourage you to register or enter the site under your name.
 
   
 
 (Votes #: 0)