2013Zone For Latest Downloads

 
     
 
Legal Downloads » Music » Korekyojinn: CD & DVD Collection (2006-2014)
Menu
Home Applications
Games Movies
Music TV Shows
Torrents Graphics

Sitemap

RSS
 
Advanced Search
Last News
Site Info
Top Contributors:
  1    supper88 32766
  2    admin 32751
  3    Whisky 10080
  4    Shark_ 8911
  5    creativelivenew 8706
  6    whathesupa 2799
  7    candymypost 840
  8    hvnteam 629
  9    vuong87 3


Articles:
  This Hour: 0
  Today: 0
  This Month: 17
  All Time: 515452


Torrents:
  Today: 0
  Yesterday: 0
  All Time: 156715


Membership:
  Registered Today :0
  This Hour:0
  This Month:0
  Total:14
  Banned:1

{online}
{inform_torrent}
Friend:
Full Download Scripts
Torrent Download
Trend
Trend

Search In Site

Music : Korekyojinn: CD & DVD Collection (2006-2014)
 
http://i58.fastpic.ru/big/2015/0503/ec/bb264c6428c58846c5eefc8172829dec.jpg

Korekyojinn: CD & DVD Collection (2006-2014)
EAC | Flac(Image) + Cue + Log & MP3 CBR 320Kbps
5CD | Magaibutsu | ~ 2247 or 719 Mb | Scans(png) -> 664 Mb
DVD-5: NTSC 4:3 (720x480) VBR | LPCM, 2 ch, 1536 Kbps -> ~ 4.02 Gb
Progressive Rock / Avant-Prog / Zeuhl


Korekyojinn at Wiki | Korekyojinn at Discogs | Korekyojinn at Allmusic | Korekyojinn at Progarchives

***********
Korekyojinn: CD & DVD Collection (2006-2014):

http://i47.fastpic.ru/big/2015/0503/bb/84de644e9bc330dc9f74b9595f2fc9bb.jpg

CD01: Korekyojinn - Jackson (2006)
EAC | Flac(Image) + Cue + Log & MP3 CBR 320Kbps
Magaibutsu, MGC-29 | ~ 380 or 125 Mb | Scans(png) -> 132 Mb
Progressive Rock / Avant-Prog / Zeuhl


Tracklist:

1. Lebanon (7:03)
2. Jackson (6:37)
3. Mindgames (4:31)
4. Pathos (6:54)
5. Kaleidoscope (3:35)
6. Rambling (6:05)
7. Nervecell (6:21)
8. Objection (5:00)
9. Isotope (6:44)

Musicians:

- Nasuno Mitsuru / bass
- Yoshida Taysuya / drums
- Kido Natsuki / guitar


Exact Audio Copy V1.0 beta 3 from 29. August 2011

EAC extraction logfile from 22. April 2015, 21:36

Korekyojinn / Jackson

Used drive : PIONEER DVD-RW DVR-220RS Adapter: 0 ID: 0

Read mode : Secure
Utilize accurate stream : Yes
Defeat audio cache : Yes
Make use of C2 pointers : No

Read offset correction

: 6
Overread into Lead-In and Lead-Out : No
Fill up missing offset samples with silence : Yes
Delete leading and trailing silent blocks : No
Null samples used in CRC calculations : Yes
Used interface
: Native Win32 interface for Win NT & 2000

Used output format : User Defined Encoder
Selected bitrate : 768 kBit/s
Quality : High
Add ID3 tag : No
Command line compressor : C:\Program Files (x86)\Exact Audio Copy\Wavpack\wavpack.exe
Additional command line options : -hm -w "Year=%year%" -w "Genre=%genre%" %source% %dest%

TOC of the extracted CD Track | Start | Length | Start sector | End sector
1 | 0:00.00 | 7:03.00 | 0 | 31724 2 | 7:03.00 | 6:37.63 | 31725 | 61562 3 | 13:40.63 | 4:31.73 | 61563 | 81960 4 | 18:12.61 | 6:54.25 | 81961 | 113035 5 | 25:07.11 | 3:35.06 | 113036 | 129166 6 | 28:42.17 | 6:05.24 | 129167 | 156565 7 | 34:47.41 | 6:21.70 | 156566 | 185210 8 | 41:09.36 | 5:00.01 | 185211 | 207711 9 | 46:09.37 | 6:44.26 | 207712 | 238037

Range status and errors

Selected range Filename C:\_NL+\_NL+__\CD74\Korekyojinn - Jackson.wav Peak level 99.9 %
Extraction speed 3.0 X
Range quality 100.0 %
Test CRC 444C96E2
Copy CRC 444C96E2
Copy OK

No errors occurred


AccurateRip summary

Track 1 accurately ripped (confidence 2) 7B9C6BC (AR v1)
Track 2 accurately ripped (confidence 2) [5C6649D9] (AR v1)
Track 3 accurately ripped (confidence 2) [FB24EB67] (AR v1)
Track 4 accurately ripped (confidence 2) [1F24F77A] (AR v1)
Track 5 accurately ripped (confidence 2) [6569B1E5] (AR v1)
Track 6 accurately ripped (confidence 2) [6AFC07F8] (AR v1)
Track 7 accurately ripped (confidence 2) [61B0D86C] (AR v1)
Track 8 accurately ripped (confidence 2) [1851FE07] (AR v1)
Track 9 accurately ripped (confidence 2) [01380D6A] (AR v1)

All tracks accurately ripped

End of status report

---- CUETools DB Plugin V2.1.3

[CTDB TOCID: nKCh0W61uTOPLsrVgru59zewaIU-] disk not present in database, Submit result: nKCh0W61uTOPLsrVgru59zewaIU- has been uploaded

==== Log checksum 0C0C67262F156956CC0FCC387D7E86D6612AB6654A2A9A0CC400749161661398 ====

foobar2000 1.2.9 / Dynamic Range Meter 1.1.1
log date: 2015-05-01 13:04:16

------
Analyzed: Korekyojinn / Jackson
------

DR Peak RMS Duration Track
------
DR9 -0.01 dB -11.03 dB 7:03 01-Lebanon
DR10 -0.01 dB -11.77 dB 6:38 02-Jackson
DR9 -0.01 dB -10.59 dB 4:32 03-Mindgames
DR10 -0.01 dB -12.10 dB 6:54 04-Pathos
DR9 -0.01 dB -11.09 dB 3:35 05-Kaleidoscope
DR9 -0.21 dB -10.69 dB 6:05 06-Rambling
DR10 -0.01 dB -11.40 dB 6:22 07-Nervecell
DR9 -0.01 dB -10.32 dB 5:00 08-Objection
DR8 -0.01 dB -10.86 dB 6:44 09-Isotope
------

Number of tracks: 9
Official DR value: DR9

Samplerate: 44100 Hz
Channels: 2
Bits per sample: 16
Bitrate: 974 kbps
Codec: FLAC

[CUETools log; Date: 01.05.2015 13:04:07; Version: 2.1.4]
[CTDB TOCID: nKCh0W61uTOPLsrVgru59zewaIU-] found.
Track | CTDB Status
1 | (1/1) Accurately ripped
2 | (1/1) Accurately ripped
3 | (1/1) Accurately ripped
4 | (1/1) Accurately ripped
5 | (1/1) Accurately ripped
6 | (1/1) Accurately ripped
7 | (1/1) Accurately ripped
8 | (1/1) Accurately ripped
9 | (1/1) Accurately ripped
[AccurateRip ID: 001262f3-00856ab4-760c6509] found.
Track [ CRC | V2 ] Status
01 7b9c6bc|b4830606 (2+0/2) Accurately ripped
02 [5c6649d9|b82076ef] (2+0/2) Accurately ripped
03 [fb24eb67|3a9f610b] (2+0/2) Accurately ripped
04 [1f24f77a|05c946aa] (2+0/2) Accurately ripped
05 [6569b1e5|12f066ce] (2+0/2) Accurately ripped
06 [6afc07f8|f7ecbad7] (2+0/2) Accurately ripped
07 [61b0d86c|e2184da3] (2+0/2) Accurately ripped
08 [1851fe07|710e7acd] (2+0/2) Accurately ripped
09 [01380d6a|ce3ca1fc] (2+0/2) Accurately ripped

Track Peak [ CRC32 ] [W/O NULL] [ LOG ]
-- 99,9 [444C96E2] [7583AB21] CRC32
01 99,9 [8CA31E94] [D53099DD]
02 99,9 [3761D9FF] [2F6B09A3]
03 99,9 [D3A475F7] [F9FC4B32]
04 99,9 [73D1CEDB] [E087A5F1]
05 99,9 [E15DBD74] [DF258574]
06 97,5 [831A74C4] [DE6786B1]
07 99,9 [061EAA2D] [540A149F]
08 99,9 [4AAC5E6C] [EB3A4221]
09 99,9 AF90E4C [41828D30]

===

http://i60.fastpic.ru/big/2015/0503/d6/b59fb24b27d96eb8ba3276e4ae3f7cd6.jpg

CD02 & DVD: Korekyojinn - Swan Dive (2009)
EAC | Flac(Image) + Cue + Log & MP3 CBR 320Kbps
Magaibutsu, MGCDV-02 | ~ 546 or 182 Mb | Scans(png) -> 120 Mb
DVD-5: NTSC 4:3 (720x480) VBR | LPCM, 2 ch, 1536 Kbps -> ~ 4.02 Gb
Progressive Rock / Avant-Prog / Zeuhl


Tracklist CD:

1. Magnetic Pole 17:33
2. Nonobservance 11:45
3. Vothqrassent 11:24
4. Palljimgrahana 7:47
5. Guru Zakun Kin Kan 24:11
6. Surabaya 4:26

Musicians:

- Nasuno Mitsuru / bass
- Yoshida Taysuya / drums
-Kido Natsuki / guitar

Guests:
Uchihashi Kazuhisa / guitar on tracks 3 & 4
Hoppy Kamiyama / keyboards & vocals on tracks 5 & 6


Exact Audio Copy V1.0 beta 3 from 29. August 2011

EAC extraction logfile from 23. April 2015, 20:03

Korekyojinn / Swan Dive

Used drive : PIONEER DVD-RW DVR-220RS Adapter: 0 ID: 0

Read mode : Secure
Utilize accurate stream : Yes
Defeat audio cache : Yes
Make use of C2 pointers : No

Read offset correction

: 6
Overread into Lead-In and Lead-Out : No
Fill up missing offset samples with silence : Yes
Delete leading and trailing silent blocks : No
Null samples used in CRC calculations : Yes
Used interface
: Native Win32 interface for Win NT & 2000

Used output format : User Defined Encoder
Selected bitrate : 768 kBit/s
Quality : High
Add ID3 tag : No
Command line compressor : C:\Program Files (x86)\Exact Audio Copy\Wavpack\wavpack.exe
Additional command line options : -hm -w "Year=%year%" -w "Genre=%genre%" %source% %dest%

TOC of the extracted CD Track | Start | Length | Start sector | End sector
1 | 0:00.00 | 17:33.32 | 0 | 79006 2 | 17:33.32 | 11:44.42 | 79007 | 131848 3 | 29:17.74 | 11:24.06 | 131849 | 183154 4 | 40:42.05 | 7:46.67 | 183155 | 218171 5 | 48:28.72 | 24:10.69 | 218172 | 326990 6 | 72:39.66 | 4:26.12 | 326991 | 346952

Range status and errors

Selected range Filename C:\_NL+\_NL+__\CD78\Korekyojinn - Swan Dive.wav Peak level 100.0 %
Extraction speed 8.5 X
Range quality 100.0 %
Test CRC 1F06BA39
Copy CRC 1F06BA39
Copy OK

No errors occurred


AccurateRip summary

Track 1 accurately ripped (confidence 3) [10A854DC] (AR v1)
Track 2 accurately ripped (confidence 3) [66BCC247] (AR v1)
Track 3 accurately ripped (confidence 3) [F185A76C] (AR v1)
Track 4 accurately ripped (confidence 3) [094F69B6] (AR v1)
Track 5 accurately ripped (confidence 2) [3E425CDD] (AR v1)
Track 6 accurately ripped (confidence 3) [192C7E03] (AR v1)

All tracks accurately ripped

End of status report

---- CUETools DB Plugin V2.1.3

[CTDB TOCID: hguzIRs6FiHI5suQbVFpEMqhcwE-] disk not present in database, Submit result: hguzIRs6FiHI5suQbVFpEMqhcwE- has been uploaded

==== Log checksum 3A6A2CBBB74C4F13BA8A186919645BEC298BA54C11072E454FE36642B4A5B63D ====

foobar2000 1.2.9 / Dynamic Range Meter 1.1.1
log date: 2015-05-01 13:05:36

------
Analyzed: Korekyojinn / Swan Dive
------

DR Peak RMS Duration Track
------
DR6 -0.01 dB -7.73 dB 17:33 01-Magnetic Pole
DR6 0.00 dB -7.07 dB 11:45 02-Nonobservance
DR6 -0.37 dB -8.03 dB 11:24 03-Vothqrassent
DR6 -0.37 dB -8.95 dB 7:47 04-Palljimgrahana
DR6 0.00 dB -7.48 dB 24:11 05-Guru Zakun Kin Kan
DR6 0.00 dB -7.05 dB 4:26 06-Surabaya
------

Number of tracks: 6
Official DR value: DR6

Samplerate: 44100 Hz
Channels: 2
Bits per sample: 16
Bitrate: 962 kbps
Codec: FLAC

[CUETools log; Date: 01.05.2015 13:05:38; Version: 2.1.4]
[CTDB TOCID: hguzIRs6FiHI5suQbVFpEMqhcwE-] found.
Track | CTDB Status
1 | (1/1) Accurately ripped
2 | (1/1) Accurately ripped
3 | (1/1) Accurately ripped
4 | (1/1) Accurately ripped
5 | (1/1) Accurately ripped
6 | (1/1) Accurately ripped
[AccurateRip ID: 00139fef-0067442b-4b121206] found.
Track [ CRC | V2 ] Status
01 [10a854dc|3eddd7bb] (3+0/3) Accurately ripped
02 [66bcc247|0f10c2bf] (3+0/3) Accurately ripped
03 [f185a76c|7467acf5] (3+0/3) Accurately ripped
04 [094f69b6|77a51f01] (3+0/3) Accurately ripped
05 [3e425cdd|43a224bf] (2+0/2) Accurately ripped
06 [192c7e03|9fb9b67a] (3+0/3) Accurately ripped

Track Peak [ CRC32 ] [W/O NULL] [ LOG ]
-- 100,0 [1F06BA39] [1F4E2A1D] CRC32
01 99,8 [3F6AAB69] [CC1870F0]
02 100,0 [076C2BF1] [07914A42]
03 95,8 [F3C0030D] [39EBD717]
04 95,8 [ED115FB8] [6A4DD456]
05 100,0 [82D33245] [3251D352]
06 100,0 [823DB5BF] [FF8C1109]

Tracklist DVD:

1. Arabesque 5:34
2. Betwixt 5:39
3. Doldrum 5:59
4. You Know What You Like 3:20
5. Four Holes in the Sky 4:11
6. On Reflection 4:52
7. Freestone 5:31
8. Poet and Peasant 7:17
9. Tundra 6:38
10. Lebanon 6:03
11. Swan Dive 8:12
12. Isotope 7:03

Title: Korekyojinn - Swan Dive DVD
Size: 3.80 Gb ( 3984232,00 KBytes ) - DVD-5
Enabled regions: 1, 2, 3, 4, 5, 6, 7, 8

VTS_01 :
Play Length: 01:10:47
Video: NTSC 4:3 (720x480) VBR
Audio:
Not specified (LinearPCM, 2 ch)

- Nasuno Mitsuri / bass
- Yoshida Tatsuya / drums
- Kido Natsuki / guitar


http://i57.fastpic.ru/big/2015/0503/19/91cf53f7efa22ed0023f6c499424bd19.jpg

http://i57.fastpic.ru/big/2015/0503/f6/64c7f400eed750ab1a2a81c839aec1f6.jpg

http://i48.fastpic.ru/big/2015/0503/ff/427973baf1dcb814903bba7bf49846ff.jpg

http://i60.fastpic.ru/big/2015/0503/77/0ed2503b6c7bd39f85387d162d4feb77.jpg

http://i59.fastpic.ru/big/2015/0503/f1/dd29d00cbbcc05f92c1554bd3c1dfdf1.jpg

===

http://i58.fastpic.ru/big/2015/0503/a1/fdd277ecee750077c00bcedb002895a1.jpg

CD03: Korekyojinn with Tsuboy Akihisa - Doldrums (2011)
EAC | Flac(Image) + Cue + Log & MP3 CBR 320Kbps
Magaibutsu, MGC-41 | ~ 420 or 133 Mb | Scans(png) -> 161 Mb
Progressive Rock / Avant-Prog / Zeuhl

Tracklist:

1. Lebanon (7:17)
2. Doldrums (7:37)
3. Freestone (6:28)
4. Nervecell (7:12)
5. Jackson (6:27)
6. Isotope (7:58)
7. Arabesque (5:46)
8. Poet & Peasant (7:12)

Musicians:

- Yoshida Tatsuya / drums
- Nasuno Mitsuru / bass
- Kido Natsuki / guitar
- Tsuboy Akihisa / violin


Exact Audio Copy V1.0 beta 3 from 29. August 2011

EAC extraction logfile from 14. May 2014, 18:52

Korekyojinn with Tsuboy Akihisa / Doldrums

Used drive : PIONEER DVD-RW DVR-220RS Adapter: 0 ID: 0

Read mode : Secure
Utilize accurate stream : Yes
Defeat audio cache : Yes
Make use of C2 pointers : No

Read offset correction

: 6
Overread into Lead-In and Lead-Out : No
Fill up missing offset samples with silence : Yes
Delete leading and trailing silent blocks : No
Null samples used in CRC calculations : Yes
Used interface
: Native Win32 interface for Win NT & 2000

Used output format : User Defined Encoder
Selected bitrate : 128 kBit/s
Quality : High
Add ID3 tag : No
Command line compressor : C:\Program Files (x86)\Exact Audio Copy\Wavpack\wavpack.exe
Additional command line options : -hlm %source% %dest%

TOC of the extracted CD Track | Start | Length | Start sector | End sector
1 | 0:00.00 | 7:19.36 | 0 | 32960 2 | 7:19.36 | 7:38.53 | 32961 | 67363 3 | 14:58.14 | 6:30.19 | 67364 | 96632 4 | 21:28.33 | 7:13.60 | 96633 | 129167 5 | 28:42.18 | 6:29.13 | 129168 | 158355 6 | 35:11.31 | 8:02.06 | 158356 | 194511 7 | 43:13.37 | 5:48.05 | 194512 | 220616 8 | 49:01.42 | 7:11.42 | 220617 | 252983

Range status and errors

Selected range Filename C:\NL+\CD90\Korekyojinn with Tsuboy Akihisa - Doldrums.wav Peak level 100.0 %
Extraction speed 1.9 X
Range quality 99.9 %
Test CRC F392AF34
Copy CRC F392AF34
Copy OK

No errors occurred


AccurateRip summary

Track 1 accurately ripped (confidence 2) [9BF55AF7] (AR v2)
Track 2 accurately ripped (confidence 2) [CC071EB5] (AR v2)
Track 3 accurately ripped (confidence 2) [EF96CA8F] (AR v2)
Track 4 accurately ripped (confidence 2) [1F572D51] (AR v2)
Track 5 accurately ripped (confidence 2) [697CB742] (AR v2)
Track 6 accurately ripped (confidence 2) [8BF439B5] (AR v2)
Track 7 accurately ripped (confidence 2) [499D43EF] (AR v2)
Track 8 accurately ripped (confidence 2) [0807DEEE] (AR v2)

All tracks accurately ripped

End of status report

---- CUETools DB Plugin V2.1.3

[CTDB TOCID: PNSfp8ShTyyi3p4EMZcXDNqc1kY-] disk not present in database, Submit result: PNSfp8ShTyyi3p4EMZcXDNqc1kY- has been uploaded

==== Log checksum 0BAC81F8D8F88E8D27CB0811933EE9D17A4847591E85B218BF81BFE0A4734929 ====

foobar2000 1.2.9 / Dynamic Range Meter 1.1.1
log date: 2015-05-01 13:05:59

------
Analyzed: Korekyojinn with Tsuboy Akihisa / Doldrums
------

DR Peak RMS Duration Track
------
DR7 0.00 dB -8.53 dB 7:19 01-Lebanon
DR7 0.00 dB -10.46 dB 7:39 02-Doldrums
DR7 0.00 dB -7.91 dB 6:30 03-Freestone
DR7 0.00 dB -9.09 dB 7:14 04-Nerve Cell
DR7 0.00 dB -8.38 dB 6:29 05-Jackson
DR7 0.00 dB -9.33 dB 8:02 06-Isotope
DR7 0.00 dB -10.25 dB 5:48 07-Arabesque
DR8 0.00 dB -9.49 dB 7:12 08-Poet & Peasant
------

Number of tracks: 8
Official DR value: DR7

Samplerate: 44100 Hz
Channels: 2
Bits per sample: 16
Bitrate: 1014 kbps
Codec: FLAC

[CUETools log; Date: 01.05.2015 13:06:02; Version: 2.1.4]
[CTDB TOCID: PNSfp8ShTyyi3p4EMZcXDNqc1kY-] found.
Track | CTDB Status
1 | (1/1) Accurately ripped
2 | (1/1) Accurately ripped
3 | (1/1) Accurately ripped
4 | (1/1) Accurately ripped
5 | (1/1) Accurately ripped
6 | (1/1) Accurately ripped
7 | (1/1) Accurately ripped
8 | (1/1) Accurately ripped
[AccurateRip ID: 00119653-0074ca0b-5c0d2d08] found.
Track [ CRC | V2 ] Status
01 [839bfc92|9bf55af7] (0+2/2) Accurately ripped
02 [f8677ebb|cc071eb5] (0+2/2) Accurately ripped
03 [8f44f0f5|ef96ca8f] (0+2/2) Accurately ripped
04 [8ada972b|1f572d51] (0+2/2) Accurately ripped
05 [d083c9d2|697cb742] (0+2/2) Accurately ripped
06 [08cb0e37|8bf439b5] (0+2/2) Accurately ripped
07 [1e23218d|499d43ef] (0+2/2) Accurately ripped
08 [69db99b1|0807deee] (0+2/2) Accurately ripped

Track Peak [ CRC32 ] [W/O NULL] [ LOG ]
-- 100,0 [F392AF34] [6F6A8F69] CRC32
01 100,0 [1B6FFC2F] [D4444CFE]
02 100,0 [F9A1E5AE] [898899E2]
03 100,0 [34853EFA] [94598EF3]
04 100,0 [F7D9847A] [4F913BF9]
05 100,0 [95D673E5] [7C6DDC13]
06 100,0 [049A764C] [9DA6A266]
07 100,0 [69B0B750] [8F88F8B9]
08 100,0 [5BCC5156] [311E45B6]

===

http://i48.fastpic.ru/big/2015/0503/5b/903f4e1e75e326146c48ceafa9c8335b.jpg

CD04: Korekyojinn - Jackson (2006) 2012 Remaster
EAC | Flac(Image) + Cue + Log & MP3 CBR 320Kbps
Magaibutsu, MGC-29B | ~ 413 or 125 Mb | Scans(png) -> 118 Mb
Progressive Rock / Avant-Prog / Zeuhl

Tracklist:

1. Lebanon (7:03)
2. Jackson (6:37)
3. Mindgames (4:31)
4. Pathos (6:54)
5. Kaleidoscope (3:35)
6. Rambling (6:05)
7. Nervecell (6:21)
8. Objection (5:00)
9. Isotope (6:44)

Exact Audio Copy V1.0 beta 3 from 29. August 2011

EAC extraction logfile from 22. April 2015, 20:54

Korekyojinn / Jackson (Remastered)

Used drive : PIONEER DVD-RW DVR-220RS Adapter: 0 ID: 0

Read mode : Secure
Utilize accurate stream : Yes
Defeat audio cache : Yes
Make use of C2 pointers : No

Read offset correction

: 6
Overread into Lead-In and Lead-Out : No
Fill up missing offset samples with silence : Yes
Delete leading and trailing silent blocks : No
Null samples used in CRC calculations : Yes
Used interface
: Native Win32 interface for Win NT & 2000

Used output format : User Defined Encoder
Selected bitrate : 768 kBit/s
Quality : High
Add ID3 tag : No
Command line compressor : C:\Program Files (x86)\Exact Audio Copy\Wavpack\wavpack.exe
Additional command line options : -hm -w "Year=%year%" -w "Genre=%genre%" %source% %dest%

TOC of the extracted CD Track | Start | Length | Start sector | End sector
1 | 0:00.00 | 7:01.60 | 0 | 31634 2 | 7:01.60 | 6:37.31 | 31635 | 61440 3 | 13:39.16 | 4:34.51 | 61441 | 82041 4 | 18:13.67 | 6:53.17 | 82042 | 113033 5 | 25:07.09 | 3:44.04 | 113034 | 129837 6 | 28:51.13 | 6:04.67 | 129838 | 157204 7 | 34:56.05 | 6:22.31 | 157205 | 185885 8 | 41:18.36 | 4:58.45 | 185886 | 208280 9 | 46:17.06 | 6:43.23 | 208281 | 238528

Range status and errors

Selected range Filename C:\_NL+\_NL+__\CD73\Korekyojinn - Jackson (Remastered).wav Peak level 100.0 %
Extraction speed 7.4 X
Range quality 100.0 %
Test CRC C2F09A2E
Copy CRC C2F09A2E
Copy OK

No errors occurred


AccurateRip summary

Track 1 not present in database
Track 2 not present in database
Track 3 not present in database
Track 4 not present in database
Track 5 not present in database
Track 6 not present in database
Track 7 not present in database
Track 8 not present in database
Track 9 not present in database

None of the tracks are present in the AccurateRip database

End of status report

---- CUETools DB Plugin V2.1.3

[CTDB TOCID: 64MuZJXWQSPqh1Al4sUNA9plmAk-] disk not present in database, Submit result: 64MuZJXWQSPqh1Al4sUNA9plmAk- has been uploaded

==== Log checksum 87362B78C7445626267BC0405826381D78EF10F5AB75E4A650A9985E07382ADB ====

foobar2000 1.2.9 / Dynamic Range Meter 1.1.1
log date: 2015-05-01 13:04:41

------
Analyzed: Korekyojinn / Jackson (Remastered)
------

DR Peak RMS Duration Track
------
DR8 -0.03 dB -9.06 dB 7:02 01-Lebanon
DR8 -0.03 dB -9.14 dB 6:37 02-Jackson
DR8 -0.03 dB -8.85 dB 4:35 03-Mindgames
DR8 0.00 dB -9.67 dB 6:53 04-Pathos
DR8 -0.07 dB -9.15 dB 3:44 05-Kaleidoscope
DR7 -0.04 dB -8.69 dB 6:05 06-Rambling
DR8 -0.04 dB -9.20 dB 6:22 07-Nervecell
DR7 -0.04 dB -8.58 dB 4:59 08-Objection
DR8 -0.01 dB -9.97 dB 6:43 09-Isotope
------

Number of tracks: 9
Official DR value: DR8

Samplerate: 44100 Hz
Channels: 2
Bits per sample: 16
Bitrate: 1059 kbps
Codec: FLAC

[CUETools log; Date: 01.05.2015 13:04:45; Version: 2.1.4]
[CTDB TOCID: 64MuZJXWQSPqh1Al4sUNA9plmAk-] found.
Track | CTDB Status
1 | (1/1) Accurately ripped
2 | (1/1) Accurately ripped
3 | (1/1) Accurately ripped
4 | (1/1) Accurately ripped
5 | (1/1) Accurately ripped
6 | (1/1) Accurately ripped
7 | (1/1) Accurately ripped
8 | (1/1) Accurately ripped
9 | (1/1) Accurately ripped
[AccurateRip ID: 00126e53-0085c746-7c0c6c09] disk not present in database.

Track Peak [ CRC32 ] [W/O NULL] [ LOG ]
-- 100,0 [C2F09A2E] [ED67D802] CRC32
01 99,6 [DCD8F423] [AD5AE1C8]
02 99,6 [341F4CDC] [C5CF6BED]
03 99,6 [2CBE05B6] [72B310B0]
04 100,0 [F220E80D] [4C68F33A]
05 99,1 [3F7B546C] 48D4220
06 99,5 [6AD381D5] [348ECC39]
07 99,5 [02B618AE] [7DC405D5]
08 99,5 [69ACCE5B] [A2B03170]
09 99,9 [655286C5] [A9BDB3AE]

===

http://i47.fastpic.ru/big/2015/0503/02/c6d67f56ff3a83fbc01977d0ba402402.jpg

CD05: Korekyojinn - Jackson (2006) 2014 Remaster
EAC | Flac(Image) + Cue + Log & MP3 CBR 320Kbps
Magaibutsu, MGC-29c | ~ 488 or 154 Mb | Scans(png) -> 133 Mb
Progressive Rock / Avant-Prog / Zeuhl

Tracklist:

1. LEBANON 7:01
2. JACKSON 6:37
3. MINDGAMES 4:32
4. PATHOS 6:53
5. RAMBLING 6:05
6. NERVECELL 6:22
7. OBJECTION 4:59
8. ISOTOPE 6:45
9. KALEIDOSCOPE (complete version) 10:29

Bonus
10. YES MEDLEY 5:36

Exact Audio Copy V1.0 beta 3 from 29. August 2011

EAC extraction logfile from 16. April 2015, 18:16

Korekyojinn / Jackson (Remastered)

Used drive : PIONEER DVD-RW DVR-220RS Adapter: 0 ID: 0

Read mode : Secure
Utilize accurate stream : Yes
Defeat audio cache : Yes
Make use of C2 pointers : No

Read offset correction

: 6
Overread into Lead-In and Lead-Out : No
Fill up missing offset samples with silence : Yes
Delete leading and trailing silent blocks : No
Null samples used in CRC calculations : Yes
Used interface
: Native Win32 interface for Win NT & 2000

Used output format : User Defined Encoder
Selected bitrate : 768 kBit/s
Quality : High
Add ID3 tag : No
Command line compressor : C:\Program Files (x86)\Exact Audio Copy\Wavpack\wavpack.exe
Additional command line options : -hm -w "Year=%year%" -w "Genre=%genre%" %source% %dest%

TOC of the extracted CD Track | Start | Length | Start sector | End sector
1 | 0:00.00 | 7:00.44 | 0 | 31543 2 | 7:00.44 | 6:37.24 | 31544 | 61342 3 | 13:37.68 | 4:31.70 | 61343 | 81737 4 | 18:09.63 | 6:53.05 | 81738 | 112717 5 | 25:02.68 | 6:04.61 | 112718 | 140078 6 | 31:07.54 | 6:21.73 | 140079 | 168726 7 | 37:29.52 | 4:58.51 | 168727 | 191127 8 | 42:28.28 | 6:45.07 | 191128 | 221509 9 | 49:13.35 | 10:29.29 | 221510 | 268713
10 | 59:42.64 | 5:36.22 | 268714 | 293935

Range status and errors

Selected range Filename C:\_NL+\_NL+__\CD61\Korekyojinn - Jackson (Remastered).wav Peak level 100.0 %
Extraction speed 7.7 X
Range quality 100.0 %
Test CRC 5D5C0BA7
Copy CRC 5D5C0BA7
Copy OK

No errors occurred


AccurateRip summary

Track 1 not present in database
Track 2 not present in database
Track 3 not present in database
Track 4 not present in database
Track 5 not present in database
Track 6 not present in database
Track 7 not present in database
Track 8 not present in database
Track 9 not present in database
Track 10 not present in database

None of the tracks are present in the AccurateRip database

End of status report

---- CUETools DB Plugin V2.1.3

[CTDB TOCID: R1b46ieXB4FLs9EFIPsMegsqEO4-] disk not present in database, Submit result: R1b46ieXB4FLs9EFIPsMegsqEO4- has been uploaded

==== Log checksum 8E49E2A8EE7AAA3D2F27970FA358C4710C8E11F1A0458836A04E08B25B5FD3CD ====

foobar2000 1.2.9 / Dynamic Range Meter 1.1.1
log date: 2015-05-01 13:05:07

------
Analyzed: Korekyojinn / Jackson (v.2.1)
------

DR Peak RMS Duration Track
------
DR7 0.00 dB -8.59 dB 7:01 01-Lebanon
DR8 0.00 dB -8.48 dB 6:37 02-Jackson
DR7 0.00 dB -8.32 dB 4:32 03-Mindgames
DR8 0.00 dB -9.55 dB 6:53 04-Pathos
DR7 0.00 dB -8.27 dB 6:05 05-Rambling
DR7 0.00 dB -8.97 dB 6:22 06-Nervecell
DR7 0.00 dB -8.54 dB 4:59 07-Objection
DR7 -0.03 dB -9.43 dB 6:45 08-Isotope
DR7 0.00 dB -8.30 dB 10:29 09-Kaleidoscope
DR7 0.00 dB -8.24 dB 5:36 10-Yes Medley
------

Number of tracks: 10
Official DR value: DR7

Samplerate: 44100 Hz
Channels: 2
Bits per sample: 16
Bitrate: 1015 kbps
Codec: FLAC

[CUETools log; Date: 01.05.2015 13:05:14; Version: 2.1.4]
[CTDB TOCID: R1b46ieXB4FLs9EFIPsMegsqEO4-] found.
Track | CTDB Status
1 | (1/1) Accurately ripped
2 | (1/1) Accurately ripped
3 | (1/1) Accurately ripped
4 | (1/1) Accurately ripped
5 | (1/1) Accurately ripped
6 | (1/1) Accurately ripped
7 | (1/1) Accurately ripped
8 | (1/1) Accurately ripped
9 | (1/1) Accurately ripped
10 | (1/1) Accurately ripped
[AccurateRip ID: 0017fa6d-00c04ba1-880f4f0a] disk not present in database.

Track Peak [ CRC32 ] [W/O NULL] [ LOG ]
-- 100,0 [5D5C0BA7] [44496D22] CRC32
01 100,0 [F313D25A] [1E12ABD8]
02 100,0 [D9730C54] [51B8ECD5]
03 100,0 [0B49E63B] [DC697E7B]
04 100,0 [38377ED2] [A822E381]
05 100,0 [07019F27] [4AB6A547]
06 100,0 [652D3F52] [E3325277]
07 100,0 [5C7F7C74] [6C44B298]
08 99,6 [A6362DC6] [52FCEC60]
09 100,0 62B69CA [09477E5E]
10 100,0 [6C2AA985] [817D012F]
DOWNLOAD LINKS:
Buy Premium To Support Me & Get Resumable Support & Max Speed


Links are Interchangeable - No Password - Single Extraction

Korekyojinn: CD & DVD Collection (2006-2014) Fast Download



 
 
 
Dear visitor, you went to the site as an unregistered user. We encourage you to register or enter the site under your name.
 
   
 
 (Votes #: 0)